#TITLE:Badger Badger Mushroom(1);
#SUBTITLE:;
#ARTIST:Unknown artist;
#TITLETRANSLIT:;
#SUBTITLETRANSLIT:;
#ARTISTTRANSLIT:;
#CREDIT:;
#BANNER:;
#BACKGROUND:;
#LYRICSPATH:;
#CDTITLE:;
#MUSIC:Badger Badger Mushroom(1).mp3;
#OFFSET:0.000;
#SAMPLESTART:100.000;
#SAMPLELENGTH:12.000;
#SELECTABLE:YES;
#BPMS:0.000=60.000;
#STOPS:;
#BGCHANGES:0.000=-random-=1.000=0=0=1,
99999=-nosongbg-=1.000=0=0=0 // don't automatically add -songbackground-
;
// cache tags:
#FIRSTBEAT:0.000;
#LASTBEAT:154.500;
#SONGFILENAME:Songs/nhac/Badger Badger Mushroom/Badger Badger Mushroom(1).sm;
#HASMUSIC:1;
#HASBANNER:0;
#MUSICLENGTH:150.138;
// end cache tags

//---------------dance-single - ----------------
#NOTES:
     dance-single:
     :
     Challenge:
     1:
     0.094,0.237,0.100,0.206,0.000,42.000,15.000,31.000,0.000,32.000:
2202
0000
0000
0000
,
0000
0300
0200
0000
,
0000
0000
0300
0000
,
0200
0000
0000
0000
,
0000
0300
0200
0000
,
0000
0000
0300
0100
,
0000
0000
0000
0000
,
0000
0000
0000
0000
,
0000
0200
0300
0000
,
0000
0200
0000
0300
,
0000
0000
0200
0000
,
0000
0000
0300
0100
,
0200
0000
0000
0000
,
0000
0300
0000
0000
,
0200
0003
3011
1111
,
1111
1111
2020
0000
,
0032
0000
0000
0000
,
0000
0200
0000
0000
,
0300
0000
0000
3023
,
0000
2000
0000
0032
,
0200
0000
0000
0023
,
0000
0000
0320
0000
,
0130
0020
0000
0000
,
0000
0032
0000
0000
,
0200
0000
0000
0000
,
0000
0000
0000
0300
,
0200
0000
0300
3023
,
0030
2002
0000
0000
,
0000
3023
0000
0000
,
2032
0000
0000
0000
,
3013
1111
1111
1010
,
0111
1000
0001
0110
,
0200
0000
0000
0000
,
0000
0000
0000
0000
,
0000
1001
0000
0000
,
0000
0000
0000
0000
,
0000
0000
0000
0000
,
0000
0000
0000
0000
0000
0000
0000
0000
0000
0000
0000
0000
0000
0000
0000
0000
0000
0000
0000
0000
0000
0000
0000
0000
0000
0000
0000
0000
0000
0000
0000
0000
0000
0000
0000
0000
0000
0000
0000
0000
0000
0000
0000
0000
0000
0000
0000
0000
0000
0000
0000
0000
0000
0000
0000
0000
0000
0000
0000
0000
0000
0000
0000
0000
0000
0000
0000
0000
0000
0000
0000
0000
0000
0000
0000
0000
0000
0000
0000
0000
0000
0000
0000
0000
0000
0000
0000
0000
0000
0000
0000
0000
0000
0000
0000
0000
0000
0300
0000
0000
0000
0000
0000
0000
0000
0000
0000
0000
0000
0000
0000
0000
0000
0000
0000
0000
0000
0000
0000
0000
0000
0000
0000
0000
0000
0000
0000
0000
0000
0000
0000
0000
0000
0000
0000
0000
0000
0000
0000
0000
0000
0000
0000
0000
0000
0000
0000
0000
0000
0000
0000
0000
0000
0000
0000
0000
0000
0000
0000
0000
0000
0000
0000
0000
0000
0000
0000
0000
0000
0000
0000
0000
0000
0000
0000
0000
0000
0000
0000
0000
0000
0000
0000
0000
0000
0000
0000
0000
0000
0000
0000
0000
;

//---------------dance-single - ----------------
#NOTES:
     dance-single:
     :
     Easy:
     1:
     0.576,0.540,1.000,0.486,0.729,335.000,197.000,73.000,0.000,2.000:
0010
0000
0100
0000
1000
0000
0000
0001
0000
0010
0100
0000
0000
1000
0000
0000
0001
0000
0010
0000
0000
0010
0000
1000
,
0000
0001
0000
0010
0000
0000
1000
0000
0001
0000
0010
0000
0000
0000
0100
0000
0000
0001
0000
0010
0000
0000
1001
0000
,
0001
1000
0000
1001
0000
1001
0000
0000
1001
0000
0000
1001
0000
1001
0000
0220
0000
0000
0000
0330
2002
0000
0000
0000
,
0000
3003
0000
1001
0000
0000
1001
0000
1001
0000
1001
0000
1001
0000
1000
0001
0000
1001
0000
1001
0000
1001
0000
1001
,
0000
1000
0001
0000
0000
0002
0000
0000
0000
0000
2003
0000
0000
0000
0000
3000
1001
0000
1001
0000
0000
1001
0000
0000
,
1001
0000
1001
0000
0000
1001
0000
1001
0000
1001
0000
0001
1000
0000
1001
0002
2000
0000
0000
0000
0000
0000
0000
0000
,
0000
3000
0023
0000
0000
0000
0000
0000
2030
0000
0000
0000
0000
0000
0000
0000
0200
3000
0000
0000
0000
0000
0000
0000
,
0000
0000
0302
0000
0000
0000
0000
0000
0000
0000
0003
0000
0000
1001
0000
1001
0000
0000
1001
0000
1001
0000
1001
0000
,
0001
1000
0000
1001
0000
1001
0000
1001
0000
1001
0000
0001
1000
0000
1001
0000
0220
0000
0000
0330
0220
0000
0000
0000
,
0330
0000
1001
0000
0000
1001
0000
0000
1001
0000
1001
0000
0001
1000
0000
1001
0000
1001
0000
1001
0000
1001
0000
1000
,
0001
0000
1001
0020
0000
0000
0000
0030
0200
0000
0000
0000
0000
0300
0000
1001
0000
1001
0000
0000
1001
0000
1001
0000
,
0000
1001
0000
1001
0000
0000
0001
1000
0000
0001
1000
0001
1000
1001
0000
0000
0002
0000
0000
0000
0000
0000
2003
0000
,
0000
0000
0000
3000
1001
0000
0000
1001
0000
1001
0000
0000
1001
0000
1001
0000
0001
1000
0000
1001
0000
1001
0000
1001
,
0000
0001
1000
0020
0000
0000
0000
0000
0230
0000
0000
0000
0000
0300
2000
0000
0000
0000
0000
0000
0000
0002
3000
0000
,
0000
0000
0000
0000
0000
0020
0003
0000
0000
0000
0200
0030
0000
0000
0300
0020
0000
0000
0000
0000
0000
0030
0000
0000
,
0000
1001
0000
1001
0000
0001
1000
0000
1001
0000
1001
0000
0000
1001
0000
1001
0000
1001
0000
1001
0000
1001
0000
0000
,
1001
0000
1001
0000
1001
0000
0000
1001
0000
1001
0000
0000
1001
0000
1001
0000
0000
1001
0000
0001
1000
0000
1001
0000
,
1001
0000
0000
1001
0000
1001
0000
1001
0000
0000
1001
0000
1001
0000
1001
0000
0220
0000
0000
0330
0020
0200
0000
0000
,
0000
0330
0000
1001
0000
0001
0000
0000
1001
0000
1001
0000
1001
0000
0000
1001
0000
1001
0000
1001
0000
1001
0000
1000
,
0001
0000
1001
0000
0002
0000
0000
0000
2003
0000
0000
0000
0000
3000
0000
0000
1001
0000
1001
0000
1001
0000
1001
0000
,
1001
0000
0000
1001
0000
1001
0000
1001
0000
1001
0000
0000
1001
0000
1001
0000
0020
0000
0000
0000
0230
0000
0000
0000
,
0000
0302
0000
0000
0000
0000
0000
0000
0000
2003
0000
0000
0000
0000
0000
0000
0000
3002
0000
0000
0000
0000
0203
0000
,
0000
0320
0000
0000
0000
2030
0000
0000
0000
0000
3000
0000
0000
1001
0000
0000
1001
0000
1001
0000
1001
0000
1001
0000
,
0000
1001
0000
1001
0000
1001
0000
1001
0000
0001
1000
0000
1001
0000
1001
0000
0020
0000
0000
0000
0230
0000
0000
0000
,
0000
0300
0000
1001
0000
0000
1001
0000
1001
0000
0001
1000
0000
1001
0000
1001
0000
1001
0000
1001
0000
1000
0001
1000
,
0001
0000
1001
0200
0020
0000
0000
0000
0000
0000
0000
0000
0000
0330
0000
1001
0000
1001
0000
0000
1001
0000
1001
0000
,
1001
0000
0000
1001
0000
1001
0000
1001
0000
1000
0001
0000
1001
1000
0001
0000
0000
2002
0000
0000
0000
0000
0000
0000
,
0000
0000
3003
0000
1001
0000
1001
0000
1001
0000
0001
1000
1001
0000
1001
0000
0001
1000
0000
1001
0000
1001
0000
1001
,
0000
1001
0000
1000
0001
0000
1001
0000
0001
1000
0000
1001
0000
0000
0000
0120
0000
0000
0000
0000
0000
0230
0000
0000
,
0000
0000
0000
0000
0000
0002
0000
0000
0300
0000
0000
2003
0000
0000
0000
3020
0000
0000
0000
0000
0000
0030
0000
0000
,
0000
1001
0000
1000
0001
0000
1001
0000
1001
0000
1001
0000
1000
0001
0000
1001
0000
1001
0000
1001
0000
1000
0001
0000
,
1001
0000
1001
0000
0020
0000
0000
0200
0030
0000
0000
0000
0000
0300
0000
1001
0000
0001
1000
0000
1001
0000
1001
0000
,
1000
0001
0000
1001
0000
1001
0000
0001
1000
0000
1001
0000
1001
0000
1001
0000
1001
0000
0220
0000
0000
0000
0000
0000
,
0000
0330
0000
1001
0000
0000
1001
0000
1001
0000
1001
0000
1000
0001
0000
1001
0000
1001
0000
1001
0000
1001
0000
1000
,
0001
0000
1001
0020
0000
0000
0000
0000
0230
0000
0000
0000
0000
0000
0300
0000
1001
0000
1001
0000
1001
0000
0001
1000
,
0000
1001
0000
1001
0000
1001
0000
1001
0000
1000
0001
0000
1001
0000
1001
0000
0220
0000
0000
0000
2332
0000
0000
0000
,
0000
0000
3023
0000
0000
0000
0000
0000
0000
0230
2000
0000
0000
0000
0000
0000
3300
0022
0000
0000
0000
0000
0000
0033
,
2200
0000
0000
0000
0000
0000
0000
0000
0000
3300
0000
0000
0000
1001
0000
0000
1001
0000
1001
0000
0000
1001
0000
0110
,
0000
0000
0220
0000
0000
0000
0000
0000
0330
2002
0000
0000
0000
0000
0000
3003
0000
0000
0000
0000
0000
0000
0000
0000
;
